Big Boss - Season 5 - 23 December 2011 - Ind


Release Notes :

-------------------------
Post Information
-------------------------
Ripped by............: Suyogya
Posted by............: Suyogya
Posted on............: 23/12/2011
Sample : Not Available
-------------------------


Format : AVI
Format/Info : Audio Video Interleave
File size : 522 MiB
Duration : 44mn 32s
Overall bit rate : 1 638 Kbps
Writing library : Boilsoft Joiner build 2411/release

Video
ID : 0
Format : MPEG-4 Visual
Format profile : [email protected]
Format settings, BVOP : No
Format settings, QPel : No
Format settings, GMC : No warppoints
Format settings, Matrix : Default (H.263)
Codec ID : XVID
Codec ID/Hint : XviD
Duration : 44mn 32s
Bit rate : 1 500 Kbps
Width : 512 pixels
Height : 384 pixels
Display aspect ratio : 4:3
Frame rate : 25.000 fps
Color space : YUV
Chroma subsampling : 4:2:0
Bit depth : 8 bits
Scan type : Progressive
Compression mode : Lossy
Bits/(Pixel*Frame) : 0.305
Stream size : 478 MiB (92%)
Writing library : Lavc51.54.0

Audio
ID : 1
Format : MPEG Audio
Format version : Version 1
Format profile : Layer 3
Mode : Joint stereo
Mode extension : MS Stereo
Codec ID : 55
Codec ID/Hint : MP3
Duration : 44mn 32s
Bit rate mode : Constant
Bit rate : 128 Kbps
Channel(s) : 2 channels
Sampling rate : 48.0 KHz
Compression mode : Lossy
Stream size : 40.8 MiB (8%)
Alignment : Split accross interleaves
Interleave, duration : 40 ms (1.00 video frame)
Interleave, preload duration : 500 ms


Screens




Download Section :


Fileserve
Code:
http://www.fileserve.com/file/P4yVBMp

Filesonic
Code:
http://www.filesonic.com/file/dy1Q1wW/

Oron
Code:
http://oron.com/iiafqe0chrtm

UploadStation
Code:
http://www.uploadstation.com/file/2DPWNmQ

FileJungle
Code:
http://www.filejungle.com/f/563jHB